Obsah fóra hifi.slovanet.sk hifi.slovanet.sk


 
 FAQFAQ   HľadaťHľadať   Zoznam užívateľovZoznam užívateľov   Užívateľské skupinyUžívateľské skupiny   RegistráciaRegistrácia 
 NastaveniaNastavenia   Súkromné správySúkromné správy   PrihláseniePrihlásenie 
http://www.tnt-audio.com/gif/smallstereo_white.gif

Jak na konverzi 5.1 do sterea?

 
Pridať novú tému   Zaslať odpoveď    Obsah fóra hifi.slovanet.sk -> Resampling, upsampling, komprimacia zvuku
Zobraziť predchádzajúcu tému :: Zobraziť nasledujúcu tému  
Autor Správa
Hlava
Hifi expert


Založený: 30 október 2006
Príspevky: 1123
Bydlisko: 1978-1996 Přerov / 1996-2002 Ostrava / 2002-2011 Brno / 2011-? Praha

PríspevokZaslal: So september 05, 2009 07:33:59    Predmet: Jak na konverzi 5.1 do sterea? Odpovedať s citátom

Dost disků DVD-audio je udělané jako 5.1 mix, no stereo výstup z Foobaru mi to nepřehraje (jednak hraje jen jeden soubor v jeden okamžik a 5.1 grabnutá stopa je ve dvou tracks, navíc jak přijde na přehrání toho druhého, tak dostanu chybu, že nejsou namapované příslušné výstupy)
kód:

track-01-01[1]-01-[C-LFE]-24-96000.wav
track-01-01[1]-01-[Lf-Rf-Ls-Rs]-24-96000.wav


Zkoušel jsem to přes Foobar přes pravé tlačítko zkonvertovat do FLACu (za použití volby DSP processoru: Convert 5.1 to stereo), ale zase, zkonvertuje se jen ten Lf-Rf..., od toho druhého dostanu chybovou hlášku
kód:

An error occured while writing to file (The encoder has terminated prematurely with code 1; please re-check parameters) : "D:\xxxxxxxx\track-01-01[1]-01-[C-LFE]-24-96000.flac"
Additional information:
Encoder stream format: 96000Hz / 2ch / 24bps
Command line: "D:\Software\Foobar2000\Flac\flac.exe" -s --ignore-chunk-sizes -6 - -o "track-01-01[1]-01-[C-LFE]-24-96000.flac"
Working folder: D:\xxxxxxxx\


Možná se to tu už někde probíralo, ale nepodařilo se mi to dohledat. Jak z těhle 5.1 stop udělat stereo stopy (jasan, pro někoho to může být prasárna, nicméně ve stávajícím stavu to neumím přehrát a kino stejně nikdy mít nebudu, takže je mi 5.1 k ničemu ...)?
Návrat hore
Zobrazit informácie o autorovi Odoslať súkromnú správu Odoslať e-mail Zobraziť autorové WWW stránky
dhfool
Hifi expert


Založený: 26 december 2006
Príspevky: 1200
Bydlisko: ČR/Ol/Dr

PríspevokZaslal: So september 05, 2009 08:24:08    Predmet: Odpovedať s citátom

Hlava
Možná to nebude úplně přesně-dlouho jsem to nepoužíval, ale do foobaru je plugin "convert 5.1 to stereo" což ještě není úplná výhra, protože některé kanály se sčítají, takže jsou hlasitější... nacož používám "matrix mixer" ,kde můžeš regulovat úrovně všech kanálů. V DSP menu by to mělo jet napřed přes "Matrix" a potom přes "5.1 to stereo" ...
Návrat hore
Zobrazit informácie o autorovi Odoslať súkromnú správu Odoslať e-mail Zobraziť autorové WWW stránky
opa
Hifi inventar


Založený: 24 február 2007
Príspevky: 10002
Bydlisko: Praha

PríspevokZaslal: So september 05, 2009 10:14:07    Predmet: Odpovedať s citátom

Mám pocit, že součástí signálu 5.1 je i informace, jakým způsobem má probíhat převod na stereo. Tu by tam měl tedy zakódovat tvůrce placky, protože v první řadě záleží na hudebním obsahu.
Návrat hore
Zobrazit informácie o autorovi Odoslať súkromnú správu
aleska
Hifista - pokročilec


Založený: 27 júl 2007
Príspevky: 330
Bydlisko: Neratovice

PríspevokZaslal: So september 05, 2009 12:23:21    Predmet: konverze 5.1 do sterea Odpovedať s citátom

Stáhni si free program XRECODE, myslím že je nyní ve verzi 2,58 a je také v češtině. Umí vše, včetně převodu vícekanálů (i DTS) do sterea (třeba i flac).
Je perfektní.
Návrat hore
Zobrazit informácie o autorovi Odoslať súkromnú správu Odoslať e-mail
Hlava
Hifi expert


Založený: 30 október 2006
Príspevky: 1123
Bydlisko: 1978-1996 Přerov / 1996-2002 Ostrava / 2002-2011 Brno / 2011-? Praha

PríspevokZaslal: So september 05, 2009 20:32:43    Predmet: Re: konverze 5.1 do sterea Odpovedať s citátom

aleska napísal:
Stáhni si free program XRECODE, myslím že je nyní ve verzi 2,58 a je také v češtině. Umí vše, včetně převodu vícekanálů (i DTS) do sterea (třeba i flac).
Je perfektní.

Čéče, stáhnul jsem to, ale moc moudrej z toho nejsem.
Vložím oba soubory, dám preprocessing, v něm zatrhnu convert to stereo a ve finále dostanu opět ty dva soubory, jako mám na začátku, akorát ve flacu. To je mi celkem k ničemu, já potřebuju udělat jeden stereosoubor ...
Návrat hore
Zobrazit informácie o autorovi Odoslať súkromnú správu Odoslať e-mail Zobraziť autorové WWW stránky
aleska
Hifista - pokročilec


Založený: 27 júl 2007
Príspevky: 330
Bydlisko: Neratovice

PríspevokZaslal: Ne september 06, 2009 03:00:05    Predmet: konverze 5.1 do sterea Odpovedať s citátom

Promiň,
já jsem si nevšiml, že máš dvě stopy, které potřebuješ smíchat do jedné. Omlouvám se, ale v tomto případě nevím. Já jej používám, když se mi dostane do ruky CD nahrané v multikanálu a chci jej uložit na disk ve stereu.
Návrat hore
Zobrazit informácie o autorovi Odoslať súkromnú správu Odoslať e-mail
dustin
Hifi inventar


Založený: 06 október 2006
Príspevky: 3988
Bydlisko: Plzeň

PríspevokZaslal: Ne september 06, 2009 22:03:46    Predmet: Odpovedať s citátom

Spojení čtyřstopého a dvoustopého souboru a downmix do sterea (front 40%, rear 20%, center 20%, LFE 20%):

kód:
sox -V -M 96-24-Lf-Rf-Ls-Rs.wav 96-24-C-LFE.wav downmixed.wav remix -m 1v0.4,3v0.2,5v0.2,6v0.2 2v0.4,4v0.2,5v0.2,6v0.2

Výstup:

kód:
sox: SoX v14.3.0
sox INFO formats: detected file format type `wav'
sox INFO wav: EXTENSIBLE
sox INFO formats: detected file format type `wav'
sox INFO wav: EXTENSIBLE

Input File     : '96-24-Lf-Rf-Ls-Rs.wav'
Channels       : 4
Sample Rate    : 96000
Precision      : 24-bit
Duration       : 00:00:32.16 = 3087000 samples ~ 2411.72 CDDA sectors
File Size      : 37.0M
Bit Rate       : 9.22M
Sample Encoding: 24-bit Signed Integer PCM
Endian Type    : little
Reverse Nibbles: no
Reverse Bits   : no


Input File     : '96-24-C-LFE.wav'
Channels       : 2
Sample Rate    : 96000
Precision      : 24-bit
Duration       : 00:00:32.16 = 3087000 samples ~ 2411.72 CDDA sectors
File Size      : 18.5M
Bit Rate       : 4.61M
Sample Encoding: 24-bit Signed Integer PCM
Endian Type    : little
Reverse Nibbles: no
Reverse Bits   : no

sox INFO sox: Overwriting `downmixed.wav'

Output File    : 'downmixed.wav'
Channels       : 2
Sample Rate    : 96000
Precision      : 24-bit
Duration       : 00:00:32.16 = 3087000 samples ~ 2411.72 CDDA sectors
Sample Encoding: 24-bit Signed Integer PCM
Endian Type    : little
Reverse Nibbles: no
Reverse Bits   : no
Comment        : 'Processed by SoX'

sox INFO sox: effects chain: input      96000Hz 6 channels
sox INFO sox: effects chain: remix      96000Hz 2 channels
sox INFO sox: effects chain: output     96000Hz 2 channels


Windowsí binárka http://sourceforge.net/project/showfiles.php?group_id=10706&package_id=10619&release_id=691489 , detaily http://sox.sourceforge.net/sox.html , klíčová slova "merge" a "remix".
Návrat hore
Zobrazit informácie o autorovi Odoslať súkromnú správu
Hlava
Hifi expert


Založený: 30 október 2006
Príspevky: 1123
Bydlisko: 1978-1996 Přerov / 1996-2002 Ostrava / 2002-2011 Brno / 2011-? Praha

PríspevokZaslal: Ut september 08, 2009 07:19:40    Predmet: Odpovedať s citátom

Vypíše mi to to samý co tobě, ale když výsledný soubor dám přehrát do Foobaru, tak dostanu hlášku
kód:
Unrecoverable playback error: Invalid audio stream specifications

Trochu mě zaráží, že zdrojový 4 kanálový wav má 200 MB, zdrojový 2 kanálový 100 MB, ale výsledný zmixovaný má taky jen 100 MB ... Question
Návrat hore
Zobrazit informácie o autorovi Odoslať súkromnú správu Odoslať e-mail Zobraziť autorové WWW stránky
dustin
Hifi inventar


Založený: 06 október 2006
Príspevky: 3988
Bydlisko: Plzeň

PríspevokZaslal: Ut september 08, 2009 10:16:50    Predmet: Odpovedať s citátom

Výsledný soubor downmixed.wav je normální stereo wav. Jiné wavy ti foobar přehraje v pohodě?

Má 100MB, protože to je dvoustopý wav, stejně jako ten C-LFE. Jenom 24-bitové hodnoty vzorků jsou součtem dle uvedeného vzorce, ale stále jde o 24 bitů.
Návrat hore
Zobrazit informácie o autorovi Odoslať súkromnú správu
Hlava
Hifi expert


Založený: 30 október 2006
Príspevky: 1123
Bydlisko: 1978-1996 Přerov / 1996-2002 Ostrava / 2002-2011 Brno / 2011-? Praha

PríspevokZaslal: Ut september 08, 2009 16:31:25    Predmet: Odpovedať s citátom

Všechny ostatní stereo HiRes wavy (třeba koupené přes HDtracks nebo z Linn) mi jdou v pohodě, stejně tak i třeba pokud jsem měl nějaké 5.1 ale v rámci jednoho wav souboru (ne dvou jako teď) - ty jsem přes converer Foobaru sjel z 5.1 do 2.0 a všechno šlape.

Jenom tydle ty dvousouborový wavy jsou pro mě oříškem Crying or Very sad
Návrat hore
Zobrazit informácie o autorovi Odoslať súkromnú správu Odoslať e-mail Zobraziť autorové WWW stránky
dhfool
Hifi expert


Založený: 26 december 2006
Príspevky: 1200
Bydlisko: ČR/Ol/Dr

PríspevokZaslal: Ut september 08, 2009 18:08:44    Predmet: Odpovedať s citátom

Nedají se v nějakém audioeditoru spojit do jednoho 5.1 souboru ?
Návrat hore
Zobrazit informácie o autorovi Odoslať súkromnú správu Odoslať e-mail Zobraziť autorové WWW stránky
dustin
Hifi inventar


Založený: 06 október 2006
Príspevky: 3988
Bydlisko: Plzeň

PríspevokZaslal: Ut september 08, 2009 19:24:29    Predmet: Odpovedať s citátom

Hlava napísal:
Všechny ostatní stereo HiRes wavy (třeba koupené přes HDtracks nebo z Linn) mi jdou v pohodě, stejně tak i třeba pokud jsem měl nějaké 5.1 ale v rámci jednoho wav souboru (ne dvou jako teď) - ty jsem přes converer Foobaru sjel z 5.1 do 2.0 a všechno šlape.

Jenom tydle ty dvousouborový wavy jsou pro mě oříškem Crying or Very sad


Trochu nechápu, proč dvousouborové wavy. Ten sox vyrobil jeden stereo wav, jehož dvě stopy jsou mixy těch šesti vstupních stop. Přehrává se to jako každý jiný stereo wav.


Naposledy upravil dustin dňa Ut september 08, 2009 19:45:41, celkom upravené 1 krát.
Návrat hore
Zobrazit informácie o autorovi Odoslať súkromnú správu
dustin
Hifi inventar


Založený: 06 október 2006
Príspevky: 3988
Bydlisko: Plzeň

PríspevokZaslal: Ut september 08, 2009 19:45:05    Predmet: Odpovedať s citátom

dhfool napísal:
Nedají se v nějakém audioeditoru spojit do jednoho 5.1 souboru ?


Přesně to dělá ten příkaz soxu. Jen parametry jeho efektu remix říkají, že se těch 6 kanálů vzniklých spojením vstupních wavů přes parametr -M (merge) remixuje do dvou výstupních kanálů dle pravidel:

kód:
remix 1v0.4,3v0.2,5v0.2,6v0.2 2v0.4,4v0.2,5v0.2,6v0.2


Tedy:
1. výstupní kanál = 0.4 x vstupní kanál 1 (Lf) + 0.2 x vst. kanál 3 (Ls) + 0.2 x vst. kanál 5 (C) + 0.2 x vst. kanál 6 (LFE)

2. výstupní kanál = 0.4 x vstupní kanál 2 (Rf) + 0.2 x vst. kanál 4 (Rs) + 0.2 x vst. kanál 5 (C) + 0.2 x vst. kanál 6 (LFE)

Kdybys chtěl z těch dvou wavů výstup 5.1, použil bys parametry remixu:

kód:
remix 1 2 5 6 3 4


Tedy na výstupu bude šestikanál (6 shluků oddělených mezerou) s útlumem 0dB (100%) s pořadím vstupních kanálů:

vstupní kanál 1 (Lf)
vstupní kanál 2 (Rf)
vst. kanál 5 (C)
vst. kanál 6 (LFE)
vst. kanál 3 (Ls)
vst. kanál 4 (Rs)

Snadno lze pořadí kanálů změnit dle potřeby. Pokud by ti vyhovovalo pořadí kanálů po pouhém sloučení (merge) vstupních wavů, efekt remix by vůbec nebyl potřeba a stačilo by:

kód:
sox -M input1.wav input2.wav ... inputx.wav output.wav


Důležitý je parametr -M (merge), narozdíl od -m (mix).

Znovu uvádím link http://sox.sourceforge.net/sox.html , klíčová slova "merge" a "remix".
Návrat hore
Zobrazit informácie o autorovi Odoslať súkromnú správu
Frantrax
Tetřev hlušec


Založený: 28 január 2007
Príspevky: 3000

PríspevokZaslal: Ut september 08, 2009 19:50:07    Predmet: Odpovedať s citátom

Do 5.1 umí míchat i Adobe Audition
_________________
Omluvte mé hloupé otázky, jsem jen zvídavý tetřev hlušec.
Návrat hore
Zobrazit informácie o autorovi Odoslať súkromnú správu
ferenc
Hifi expert


Založený: 29 október 2006
Príspevky: 1901
Bydlisko: Trnava

PríspevokZaslal: Ut september 08, 2009 19:55:52    Predmet: Odpovedať s citátom

kukni sa na wavpack format, ten vie komprimovat aj multikanalove audio do jedneho fajlu ..
mam to vyskusane, foobar ho tusim nativne podporuje

_________________
Low end, nízka konzumná trieda, nič pre mňa. Ja sa točím v super high ende.
Návrat hore
Zobrazit informácie o autorovi Odoslať súkromnú správu Odoslať e-mail
dustin
Hifi inventar


Založený: 06 október 2006
Príspevky: 3988
Bydlisko: Plzeň

PríspevokZaslal: Ut september 08, 2009 20:49:01    Predmet: Odpovedať s citátom

ferenc napísal:
kukni sa na wavpack format, ten vie komprimovat aj multikanalove audio do jedneho fajlu ..
mam to vyskusane, foobar ho tusim nativne podporuje


Pro wavpack stačí u výše uvedených příkazů změnit koncovku výstupního souboru z wav na wv, a to i u multikanálu Smile Otestoval jsem, že po opětovném převodu na wav
kód:
sox file.wv file.wav


jsou původní a nový bitově shodné:

kód:
sox -V -m orig.wav -v -1 novy.wav -n stat
Input File     : 'orig.wav'
Channels       : 4
Sample Rate    : 96000
Precision      : 24-bit
Duration       : 00:00:32.16 = 3087000 samples ~ 2411.72 CDDA sectors
File Size      : 37.0M
Bit Rate       : 9.22M
Sample Encoding: 24-bit Signed Integer PCM
Endian Type    : little
Reverse Nibbles: no
Reverse Bits   : no


Input File     : 'novy.wav'
Channels       : 4
Sample Rate    : 96000
Precision      : 24-bit
Duration       : 00:00:32.16 = 3087000 samples ~ 2411.72 CDDA sectors
File Size      : 37.0M
Bit Rate       : 9.22M
Sample Encoding: 24-bit Signed Integer PCM
Endian Type    : little
Reverse Nibbles: no
Reverse Bits   : no
Level adjust   : -1 (linear gain)


Output File    : '' (null)
Channels       : 4
Sample Rate    : 96000
Precision      : 24-bit
Duration       : 00:00:32.16 = 3087000 samples ~ 2411.72 CDDA sectors

sox INFO sox: effects chain: input      96000Hz 4 channels
sox INFO sox: effects chain: stat       96000Hz 4 channels
sox INFO sox: effects chain: output     96000Hz 4 channels
Samples read:          12348000
Length (seconds):     32.156250
Scaled by:         2147483647.0
Maximum amplitude:     0.000000
Minimum amplitude:     0.000000
Midline amplitude:     0.000000
Mean    norm:          0.000000
Mean    amplitude:     0.000000
RMS     amplitude:     0.000000
Maximum delta:         0.000000
Minimum delta:         0.000000
Mean    delta:         0.000000
RMS     delta:         0.000000
Rough   frequency:  -2147483648


Zde se použil na vstupní soubory režim mix, tedy součet vzorků (parametr -m), druhý vstupní soubor měl hlasitost -1 (parametr -v -1), do výstupního souboru se neukládá (místo názvu výst. souboru je uveden parametr -n) a efekt stat počítá parametry výstupního streamu, v tomto případě zjistil nulovou amplitudu všech vzorků, tedy orig.wav mínus novy.wav je nulový wav. Samozřejmě bych mohl porovnávat třeba flac s wavpackem, sox si všechna data interně převádí do PCM int32.
Návrat hore
Zobrazit informácie o autorovi Odoslať súkromnú správu
dhfool
Hifi expert


Založený: 26 december 2006
Príspevky: 1200
Bydlisko: ČR/Ol/Dr

PríspevokZaslal: Ut september 08, 2009 21:32:14    Predmet: Odpovedať s citátom

dustin
jééé já jsem přehlíd, žes to už napsal Very Happy

Hlava
Ten soubor, co ti vylezl ze SOXu ,jak ti poradil dustin, asi bude v pořádku, ale chyba bude někde na straně foobar asio... Vyzkoušej jiný player. Foobar má své mouchy když přehráváš soubory v různém rozlišení.
Návrat hore
Zobrazit informácie o autorovi Odoslať súkromnú správu Odoslať e-mail Zobraziť autorové WWW stránky
Hlava
Hifi expert


Založený: 30 október 2006
Príspevky: 1123
Bydlisko: 1978-1996 Přerov / 1996-2002 Ostrava / 2002-2011 Brno / 2011-? Praha

PríspevokZaslal: St september 09, 2009 07:34:05    Predmet: Odpovedať s citátom

dhfool napísal:
Ten soubor, co ti vylezl ze SOXu ,jak ti poradil dustin, asi bude v pořádku, ale chyba bude někde na straně foobar asio... Vyzkoušej jiný player. Foobar má své mouchy když přehráváš soubory v různém rozlišení.

Ten soubor, co mi vylezl ze SOXu si myslím v pořádku nebude.
WMP přehraje jen prvních 6 s, Foobar z něj nepřehraje nic.
Je to pro mě španělská vesnice ... Crying or Very sad
Návrat hore
Zobrazit informácie o autorovi Odoslať súkromnú správu Odoslať e-mail Zobraziť autorové WWW stránky
dustin
Hifi inventar


Založený: 06 október 2006
Príspevky: 3988
Bydlisko: Plzeň

PríspevokZaslal: St september 09, 2009 09:57:13    Predmet: Odpovedať s citátom

Zkusme toto:

http://sox.sourceforge.net/soxformat.html

citácia:

.wavpcm
A non-standard, but widely used, variant of .wav. Some applications cannot read a standard WAV file header for PCM-encoded data with sample-size greater than 16-bits or with more than two channels, but can read a non-standard WAV header. It is likely that such applications will eventually be updated to support the standard header, but in the mean time, this SoX format can be used to create files with the non-standard header that should work with these applications. (Note that SoX will automatically detect and read WAV files with the non-standard header.)

The most common use of this file-type is likely to be along the following lines:

sox infile.any -t wavpcm -s outfile.wav


Takže zkus do příkazu před název výstupního souboru downmixed.wav připsat parametr -t wavpcm. Musí to být před názvem výstupního souboru, aby to nastavovalo jeho parametry.

Šlo by to otestovat i tak, že by se před název výst. souboru dal parametr -r 48000, čímž by se sice zachoval standardní wav formát, ale výsledek by se downsamploval na 48kHz. Pokud by takový wav foobar přehrál, je to zase ona zmiňovaná chyba/nepodpora přehrávače a je dobré s tím do budoucna počítat.

Mimochodem, wavpcm se řeší např. v pár příspěvcích počínaje http://www.diyaudio.com/forums/showthread.php?postid=1711549#post1714364

Zmiňuje to i wikipedia http://en.wikipedia.org/wiki/WAV (WAVE_FORMAT_EXTENSIBLE)
Návrat hore
Zobrazit informácie o autorovi Odoslať súkromnú správu
Zobraziť príspevky z predchádzajúcich:   
Pridať novú tému   Zaslať odpoveď    Obsah fóra hifi.slovanet.sk -> Resampling, upsampling, komprimacia zvuku Časy uvádzané v GMT + 1 hodina
Strana 1 z 1

 
Prejdi na:  
Nemôžete pridávať nové témy do tohto fóra.
Nemôžete odpovedať na témy v tomto fóre.
Nemôžete upravovať svoje príspevky v tomto fóre.
Nemôžete mazať svoje príspevky v tomto fóre.
Nemôžete hlasovať v tomto fóre.
Nemôžete pripojiť súbory do tohto fóra.
Nemôžete sťahovať súbory z tohto fóra.


Powered by phpBB © 2001, 2005 phpBB Group
Slovenský preklad phpBB Slovak - www.pcforum.sk
TOPlist