Obsah fóra hifi.slovanet.sk hifi.slovanet.sk


 
 FAQFAQ   HľadaťHľadať   Zoznam užívateľovZoznam užívateľov   Užívateľské skupinyUžívateľské skupiny   RegistráciaRegistrácia 
 NastaveniaNastavenia   Súkromné správySúkromné správy   PrihláseniePrihlásenie 
https://www.tnt-audio.com/gif/smallstereo_white.gif

Progres 2 - Dialog s vesmírem

 
Pridať novú tému   Zaslať odpoveď    Obsah fóra hifi.slovanet.sk -> Odporúčané nahrávky
Zobraziť predchádzajúcu tému :: Zobraziť nasledujúcu tému  
Autor Správa
Milan_
Hifista - pokročilec


Založený: 23 máj 2008
Príspevky: 315

PríspevokZaslal: Pi apríl 10, 2020 19:43:13    Predmet: Progres 2 - Dialog s vesmírem Odpovedať s citátom

Rád bych připomenul tohle legendární album, tuhle rockovou sci-fi operu od Brněnské kapely Progres 2, které nebojím se říct snese srovnání i s tvorbou Pink Floyd.

A teď ke zvuku, původně album vyšlo ve zkrácené podobě na LP. Na cd vyšlo poprvé v roce 1999 bohužel s remasterovaným zvukem, ale se všemi stopami které původně vyšli na EP a SP samostatně i včetně znovu nahrané Planety Hieronyma Bosche s "normálním" textem. V roce 2010 vychází dvojalbum studio a live verze, bohužel studiová verze vychází ze zvuku vydání z 1999 roku. V roce 2013 je album ke stažení na webových stránkách Supraphonu bohužel remasterovaný zvuk zůstává a navíc jen původních 8 stop. A teď přichází pro nás hifisty to zajímavé v roce 2017 je album ke stažení v rozlišení 24bit/192kHz a pozor s původní plnou dynamikou a zvukem ! bohužel pořád jen 8 stop, ale i tak díky za ně... https://www.supraphonline.cz/album/341651-dialog-s-vesmirem/hi-res

Dynamika remasterovaného cd 1999:
----------------------------------------------------------------------------------------------
DR Peak RMS Filename
----------------------------------------------------------------------------------------------

DR9 -0.35 dB -12.03 dB 01 - V zajeti pocitacu.wav
DR9 -0.10 dB -10.92 dB 02 - Zeme 2555.wav
DR9 -0.29 dB -11.38 dB 03 - Pisen o jablku.wav
DR9 -0.11 dB -10.06 dB 04 - Odlet.wav
DR8 -0.15 dB -11.00 dB 05 - Planeta Hieronyma Bosche I.wav
DR8 -0.11 dB -9.93 dB 06 - Planeta Hieronyma Bosche II.wav
DR9 -0.10 dB -12.20 dB 08 - Tisice mych oci.wav
DR10 -0.10 dB -11.89 dB 09 - Hymna robotu.wav
----------------------------------------------------------------------------------------------

Number of files: 8
Official DR value: DR9

====================================================

Dynamika hi-res verze z webu supraphonline.cz
----------------------------------------------------------------------------------------------
DR Peak RMS Filename
----------------------------------------------------------------------------------------------

DR12 -1.72 dB -17.66 dB 01 - V zajeti pocitacu.wav
DR12 -0.48 dB -15.87 dB 02 - Zeme 2555.wav
DR11 -0.89 dB -15.14 dB 03 - Pisen o jablku.wav
DR11 -0.00 dB -12.86 dB 04 - Odlet.wav
DR11 -0.05 dB -14.97 dB 05 - Planeta Hieronyma Bosche I.wav
DR11 -0.04 dB -13.90 dB 06 - Planeta Hieronyma Bosche II.wav
DR13 -0.33 dB -17.39 dB 07 - Tisice mych oci.wav
DR14 -0.48 dB -16.47 dB 08 - Hymna robotu.wav
----------------------------------------------------------------------------------------------

Number of files: 8
Official DR value: DR12 Thumb up

===================================================



R-1745991-1240877566.jpeg.jpg
 Description:
 Filesize:  68.7 KB
 Viewed:  30 Time(s)

R-1745991-1240877566.jpeg.jpg



R-1745991-1240877580.jpeg.jpg
 Description:
 Filesize:  78.25 KB
 Viewed:  26 Time(s)

R-1745991-1240877580.jpeg.jpg



R-1745991-1240877596.jpeg.jpg
 Description:
 Filesize:  63.09 KB
 Viewed:  33 Time(s)

R-1745991-1240877596.jpeg.jpg



_________________
Loudness war zabíjí hudbu ! https://diit.cz/clanek/road-to-hell-aneb-jak-vydavatele-poskozuji-technickou-kvalitu-hudby/36091
Návrat hore
Zobrazit informácie o autorovi Odoslať súkromnú správu Odoslať e-mail
karfik
Hifista - zaslúžilec


Založený: 21 december 2006
Príspevky: 925
Bydlisko: Ostrožská Nová Ves

PríspevokZaslal: St február 24, 2021 21:56:54    Predmet: Odpovedať s citátom

Koupil jsem také od Supraphonu a ten zvuk je bombastický. A samozřejmě hudba stejně tak. Koupil jsem i na LP, ale to je špatné.
_________________
Audio streamer Volumio + gramofon - DAC+Buffer - PowerAmp T class 2x300W - 3p reprosoustavy SS+Audax (vše má vlastní výroba pod označením MINIMALISM), kabeláž Belkin Premium USB, interconnect RG223, reprokabel RG214
Návrat hore
Zobrazit informácie o autorovi Odoslať súkromnú správu
Zobraziť príspevky z predchádzajúcich:   
Pridať novú tému   Zaslať odpoveď    Obsah fóra hifi.slovanet.sk -> Odporúčané nahrávky Časy uvádzané v GMT + 1 hodina
Strana 1 z 1

 
Prejdi na:  
Nemôžete pridávať nové témy do tohto fóra.
Nemôžete odpovedať na témy v tomto fóre.
Nemôžete upravovať svoje príspevky v tomto fóre.
Nemôžete mazať svoje príspevky v tomto fóre.
Nemôžete hlasovať v tomto fóre.
Môžete pripojiť súbory do tohto fóra.
Môžete sťahovať súbory z tohto fóra.


Powered by phpBB © 2001, 2005 phpBB Group
Slovenský preklad phpBB Slovak - www.pcforum.sk
TOPlist